Hotel Inferno 2 The Cathedral of Pain (2017) movie online viooz | Try season 05 episode 15 | Spotlight (2015)

Tony Robbins: MONEY Master the Game: 7 Simple Steps to Financial Freedom - BONUS Videos

Tony Robbins: MONEY Master the Game: 7 Simple Steps to Financial Freedom - BONUS Videos
Tony Robbins: MONEY Master the Game: 7 Simple Steps to Financial Freedom - BONUS Videos
English | MP4 | 640 x 480 | AVC ~500 kbps | 23.976 fps
AAC | 106 Kbps | 44.1 KHz | 2 channels | 02:32:59 | 676 MB
Genre: Video Tutorial / Economics, Finance

These are the 3 Bonus videos: "FAST TRACK VIDEO SERIES" - After ordering your copy of MONEY: MASTER THE GAME you will receive an email with access to Tonys exclusive Fast Track bonus video series. You will IMMEDIATELY receive access to three Fast Track videos to help jump start your journey to financial freedom.
Publishers Summary
Tony Robbins has coached and inspired more than 50 million people from over 100 countries. More than four million people have attended his live events. Oprah Winfrey calls him "super-human". Now for the first time - in his first book in two decades - hes turned to the topic that vexes us all: How to secure financial freedom for ourselves and our families.
Based on extensive research and one-on-one interviews with more than 50 of the most legendary financial experts in the world - from Carl Icahn and Warren Buffett, to Ray Dalio and Steve Forbes - Tony Robbins has created a simple 7-step blueprint that anyone can use for financial freedom.
Robbins has a brilliant way of using metaphor and story to illustrate even the most complex financial concepts - making them simple and actionable. With expert advice on our most important financial decisions, Robbins is an advocate for the listener, dispelling the myths that often rob people of their financial dreams.
Tony Robbins walks listeners of every income level through the steps to become financially free by creating a lifetime income plan. This audiobook delivers invaluable information and essential practices for getting your financial house in order.
MONEY Master the Game is the book millions of people have been waiting for.
More Info: homepage
Tony Robbins: MONEY Master the Game: 7 Simple Steps to Financial Freedom - BONUS Videos

General
Complete name : Money Fast Track Video Series-3.mp4
Format
: MPEG-4
Format profile : Base Media
Codec ID
: isom
File size
: 222 MiB
Duration
: 51mn 5s
Overall bit rate mode : Variable
Overall bit rate : 608 Kbps
Writing application
: Lavf55.44.100
Video
ID : 1
Format
: AVC
Format/Info
: Advanced Video Codec
Format profile : [email protected]
Format settings, CABAC : Yes
Format settings, ReFrames : 4 frames
Codec ID
: avc1
Codec ID/Info : Advanced Video Coding
Duration
: 51mn 5s
Bit rate
: 500 Kbps
Width
: 640 pixels
Height
: 480 pixels
Display aspect ratio : 4:3
Frame rate mode : Constant
Frame rate
: 23.976 fps
Color space
: YUV
Chroma subsampling
: 4:2:0
Bit depth
: 8 bits
Scan type
: Progressive
Bits/(Pixel*Frame)
: 0.068
Stream size
: 182 MiB (82%)
Writing library : x264 core 142 r2431 a5831aa
Encoding settings: cabac=1 / ref=3 / deblock=1:0:0 / analyse=0x3:0x113 / me=hex / subme=7 / psy=1 / psy_rd=1.00:0.00 / mixed_ref=1 / me_range=16 / chroma_me=1 / trellis=1 / 8x8dct=1 / cqm=0 / deadzone=21,11 / fast_pskip=1 / chroma_qp_offset=-2 / threads=2 / lookahead_threads=1 / sliced_threads=0 / nr=0 / decimate=1 / interlaced=0 / bluray_compat=0 / constrained_intra=0 / bframes=3 / b_pyramid=2 / b_adapt=1 / b_bias=0 / direct=1 / weightb=1 / open_gop=0 / weightp=2 / keyint=250 / keyint_min=23 / scenecut=40 / intra_refresh=0 / rc_lookahead=40 / rc=abr / mbtree=1 / bitrate=500 / ratetol=1.0 / qcomp=0.60 / qpmin=0 / qpmax=69 / qpstep=4 / ip_ratio=1.40 / aq=1:1.00
Audio
ID : 2
Format
: AAC
Format/Info
: Advanced Audio Codec
Format profile : LC
Codec ID
: 40
Duration
: 51mn 5s
Duration_FirstFrame
: 60ms
Duration_LastFrame
: -20ms
Bit rate mode : Variable
Bit rate
: 106 Kbps
Maximum bit rate : 128 Kbps
Channel(s)
: 2 channels
Channel positions: Front: L R
Sampling rate : 44.1 KHz
Compression mode : Lossy
Stream size
: 38.7 MiB (17%)
Screenshots
Tony Robbins: MONEY Master the Game: 7 Simple Steps to Financial Freedom - BONUS Videos
Tony Robbins: MONEY Master the Game: 7 Simple Steps to Financial Freedom - BONUS Videos
Tony Robbins: MONEY Master the Game: 7 Simple Steps to Financial Freedom - BONUS Videos

Buy Premium Account To Get Resumable Support & Max Speed


Links are Interchangeable - No Password



Tony Robbins: MONEY Master the Game: 7 rapidshare megaupload via torrent download, full free download, Tony Robbins: MONEY Master the Game: 7 rar Zip Highspeed torrent download included crack, serial, keygen, cdkey, 2016, 2015 ,Movies(BlueRay/BD/DVD/1080p/720P)download available.

Related News:

Jakub Fijak - Soundstroke (2015)


Jakub Fijak - Soundstroke (2015)
MP3 CBR 320 kbps | Tracks: 12 | 49:35 min | 116 Mb
Style: Electronic, Ambient, Chillout, New Age | Label: Jakub Fijak
After two years of musical break, caused mostly by technical issues with

Nate Connelly - A Dream About Being Lost (2015)


Nate Connelly - A Dream About Being Lost (2015)
MP3 CBR 320 kbps | Tracks: 10 | 41:40 min | 101 Mb
Style: Electronic, Ambient, Chillout | Label: Blind Colour
While 2014 already has a few too many scuffs on it to be termed

Klaus Schulze - La Vie Electronique 16 (2015)


Klaus Schulze - La Vie Electronique 16 (2015)
MP3 CBR 320 kbps | Tracks: 37 | 384:35 min | 881 Mb
Style: Electronic, Ambient, New Age, Krautrock, Berlin School | Label: Mig Music
Released in May 2015, this is, apparently,

Herbert Von Karajan - Master Recordings: 10 CD Box Set (2007)


Herbert Von Karajan - Master Recordings: 10 CD Box Set (2007)
Classical | MP3 CBR 320 kbps | 1,63 Gb | Artworks 82 Mb
Label: Deutsche Grammophon | Release Year: 2007
“ Herbert von Karajan was one of the 20th

Clarence Gatemouth Brown - Okie Dokie Stomp (1999)


Clarence 'Gatemouth' Brown - Okie Dokie Stomp (1999)
EAC Rip | FLAC (Image) + CUE + LOG | Covers | 352 MB
Genre: Blues/Folk/R&B/Country | Label: Bullseye Blues/Bullseye Blues | Release Date: July 13, 1999 | Catalog

Albert King - Ill Play The Blues For You (1972) Expanded Reissue 2012


Albert King - I'll Play The Blues For You (1972) Expanded Reissue 2012
EAC | FLAC | Tracks (Cue&Log) ~ 396 Mb (incl 5%) | Mp3 (CBR320/Stereo) ~ 146 Mb (incl 5%) | Scans ~ 239 Mb
Genre: Blues | Label: Concord Music Group | #

Comments: 0