Download | David Brau | Urbano latino festival 2017

Recipe for Murder (2011)


Recipe for Murder (2011)
PDTV | 716x402 | .MP4/AVC @ 816 Kbps | 52mn 24s | Audio: English AAC 159 kbps, 2 channels | Subs: None | 367 MiB
Genre: Documentary | Crime

Sydney, the early 1950's... a city in the grip of a deadly crime wave. In just over a year more than one hundred people were poisoned. Most of the killers were women. Recipe For Murder tells the true story of three notorious poisoners; Yvonne Fletcher, Caroline Grills and Veronica Monty. The 52 minute film combines gritty archive with stunning film noir re-enactments and interviews with witnesses. Narrated by Dan Wyllie in classic pulp crime style, the film dramatically reveals the unique ingredients that created a Recipe For Murder.


MediaInfo

General
Complete name : Recipe.For.Murder.mp4
Format : MPEG-4
Format profile : Base Media
Codec ID : isom
File size : 367 MiB
Duration : 52mn 24s
Overall bit rate mode : Variable
Overall bit rate : 979 Kbps

Video
ID : 1
Format : AVC
Format/Info : Advanced Video Codec
Format profile : [email protected]
Format settings, CABAC : Yes
Format settings, ReFrames : 8 frames
Codec ID : avc1
Codec ID/Info : Advanced Video Coding
Duration : 52mn 24s
Bit rate : 816 Kbps
Maximum bit rate : 5 204 Kbps
Width : 716 pixels
Height : 402 pixels
Display aspect ratio : 16:9
Frame rate mode : Constant
Frame rate : 25.000 fps
Color space : YUV
Chroma subsampling : 4:2:0
Bit depth : 8 bits
Scan type : Progressive
Bits/(Pixel*Frame) : 0.113
Stream size : 306 MiB (83%)
Writing library : x264 core 142 r2479 dd79a61
Encoding settings : cabac=1 / ref=8 / deblock=1:-1:-1 / analyse=0x1:0x131 / me=umh / subme=9 / psy=1 / psy_rd=1.00:0.00 / mixed_ref=1 / me_range=16 / chroma_me=1 / trellis=2 / 8x8dct=0 / cqm=0 / deadzone=21,11 / fast_pskip=1 / chroma_qp_offset=-2 / threads=12 / lookahead_threads=1 / sliced_threads=0 / nr=0 / decimate=1 / interlaced=0 / bluray_compat=0 / constrained_intra=0 / bframes=3 / b_pyramid=2 / b_adapt=2 / b_bias=0 / direct=3 / weightb=1 / open_gop=0 / weightp=2 / keyint=250 / keyint_min=25 / scenecut=40 / intra_refresh=0 / rc_lookahead=60 / rc=crf / mbtree=1 / crf=21.0 / qcomp=0.60 / qpmin=0 / qpmax=69 / qpstep=4 / ip_ratio=1.40 / aq=1:1.00
Encoded date : UTC 2014-09-24 15:36:52
Tagged date : UTC 2014-09-24 15:36:57

Audio
ID : 2
Format : AAC
Format/Info : Advanced Audio Codec
Format profile : LC
Codec ID : 40
Duration : 52mn 24s
Bit rate mode : Variable
Bit rate : 159 Kbps
Maximum bit rate : 228 Kbps
Channel(s) : 2 channels
Channel positions : Front: L R
Sampling rate : 48.0 KHz
Compression mode : Lossy
Stream size : 59.7 MiB (16%)
Encoded date : UTC 2014-09-24 14:11:54
Tagged date : UTC 2014-09-24 15:36:57


Screenshots:









Recipe for Murder (2011) rapidshare megaupload via torrent download, full free download, Recipe for Murder (2011) rar Zip Highspeed torrent download included crack, serial, keygen, cdkey, 2016, 2015 ,Movies(BlueRay/BD/DVD/1080p/720P)download available.

Related News:

Sviatoslav Richter - Johann Sebastian Bach: The Well-Tempered Clavier Book 1 (2011) 2CD


Sviatoslav Richter - Johann Sebastian Bach: The Well-Tempered Clavier, Book 1 (2011) 2CD
EAC | FLAC | Image (Cue&Log) ~ 528 Mb (incl 5%) | Mp3 (CBR320) ~ 303 Mb (incl 5%) | Scans included
Genre: Classical | Label: Melodiya | #

Bob Dylan - (Abandoned) Desire (2CD) (2011)


Bob Dylan - (Abandoned) Desire (2CD) (2011)
MP3 CBR 320kbps | RAR | 317 mb
Genre: rock'n'roll, classic rock, folk, country
(Abandoned) Desire is a 2011 double CD bootleg by Bob Dylan. Released by the Scorpio label, it

Idil Biret - Complete Beethoven Edition: Box Set 19 CD (2011)


Idil Biret - Complete Beethoven Edition: Box Set 19 CD (2011)
Classical | MP3 CBR 320 kbps | 3,20 Gb | Artworks 284 Mb
Label: IDIL BIRET ARCHIVE | Release Year: 2011
“This 19 CD box set consists of the complete

Rossini - Semiramide (Alberto Zedda Myrto Papatanasiu Ann Hallenberg) (2011) BluRay-rip


Rossini - Semiramide (Alberto Zedda, Myrtò Papatanasiu, Ann Hallenberg) (2011) [BluRay-rip]
Classical | BluRay-rip | AVC | MKV 1920x1080 (16:9) / 6215 kbps / 29,970 fps | 238 min | 12,9GB
Audio: Italian / DTS / 5ch / 48.0 KHz / 16

Tron Syversen - Piano Poems (2011)


Tron Syversen - Whisper Of Assisi (2011)
MP3 CBR 320 kbps | Tracks: 10 | 62:23 min | 143 Mb
Style: New Age | Label: Global Journey
Tron Syversen - famous Norwegian pianist and composer, writing the music for relaxation and

The Guitar Artistry Of - Eric Bibb (2011)


The Guitar Artistry Of - Eric Bibb (2011)
Video: NTSC, MPEG-2 at 5 300 Kbps, 720 x 480 at 29.970 fps | Audio: AC-3 2 channels at 192 Kbps, 48.0 KHz
Genre: Blues | Label: Quantum Leap | Copy: Untouched | Release Date: 20 Jun 2011 |

Comments: 0